Quick Browse
Movies
TV shows
Music
Games
Applications
Anime
Other

Latest Articles

gototorrent

Verified torrent Blade Runner 2049(2017) 1080p 6CH WEB-DL x265-HETeam


    Seeders : 4393      Leechers : 2116


Note :

Please Update (Trackers Info) Before Downloading Torrents to See Updated Seeders And Leechers for Batter Download Speed.

Trackers List

Tracker NameLast CheckStatusSeedersLeechers
http://tracker.opentrackr.org/announce12 days agosuccess4,3931,947
udp://tracker.opentrackr.org:1337/announce12 days agosuccess4,3931,947
udp://tracker.leechers-paradise.org:6969/announce12 days agosuccess4,2981,879
udp://eddie4.nl:6969/announce12 days agosuccess4,2981,881
udp://tracker.pirateparty.gr:6969/announce12 days agosuccess4,2611,872
udp://tracker.coppersurfer.tk:6969/announce12 days agosuccess4,2611,872
udp://p4p.arenabg.com:1337/announce12 days agosuccess4,2521,862
udp://p4p.arenabg.ch:1337/announce12 days agosuccess4,2511,861
udp://ipv4.tracker.harry.lu:80/announce12 days agosuccess4,1652,116
udp://tracker.zer0day.to:1337/announce12 days agosuccess4,1191,824
udp://tracker.internetwarriors.net:1337/announce12 days agosuccess4,0831,809
udp://public.popcorn-tracker.org:6969/announce12 days agosuccess3,9731,778
udp://tracker.vanitycore.co:6969/announce12 days agosuccess3,9301,763
udp://mgtracker.org:6969/announce12 days agosuccess3,5541,659
udp://tracker.x4w.co:6969/announce12 days agosuccess00
udp://tracker.mg64.net:6881/announce12 days agosuccess00
udp://tracker.sktorrent.net:6969/announce12 days agosuccess00
udp://tracker4.piratux.com:6969/announce12 days agosuccess00
udp://9.rarbg.to:2710/announce12 days agosuccess00
udp://tracker.mgtracker.org:2710/announce12 days agosuccess00
udp://asnet.pw:2710/announce12 days agosuccess00
udp://tracker.blackunicorn.xyz:6969/announce12 days agosuccess00
udp://glotorrents.pw:6969/announce12 days agosuccess00
udp://tracker.trackerfix.com:80/announce12 days agosuccess00
udp://tracker.pomf.se:80/announce12 days agosuccess00
http://tracker2.wasabii.com.tw:6969/announce12 days agosuccess00
udp://explodie.org:6969/announce12 days agosuccess00
udp://tracker.ilibr.org:6969/announce12 days agosuccess00
udp://castradio.net:6969/announce12 days agosuccess00
http://announce.torrentsmd.com:6969/announce12 days agosuccess00
http://bigfoot1942.sektori.org:6969/announce12 days agosuccess00
http://tracker.trackerfix.com/announce12 days agosuccess00
udp://9.rarbg.com:2710/announce12 days agosuccess00
udp://9.rarbg.me:2710/announce12 days agosuccess00




Torrent File Content (2 files)


Blade.Runner.2049(2017).1080p.6CH.WEB-DL.x265-HETeam
     Crazy4TV.com - Blade Runner 2049.1080p.WEB-DL.x265-HETeam.mkv -
2.05 GB

     Read Me.txt -
85 bytes



Description



Movies : Action : HD 1080p / 1080i : English
Loading... (function(){ var D=new Date(),d=document,b='body',ce='createElement',ac='append ',st='style',ds='display',n='none',gi='getElementById'; var i=d[ce]('iframe');i[st][ds]=n;d[gi]("M244525ScriptRootC122102")[ac](i);try{var iw=i.contentWindow.document;iw.open();iw.writeln("");iw.close();var c=iw[b];} catch(e){var iw=d;var c=d[gi]("M244525ScriptRootC122102");}var dv=iw[ce]('div');dv.id="MG_ID";dv[st][ds]=n;dv.innerHTML=122102;c[ac](dv); var s=iw[ce]('script');s.async='async';s.defer='defer';s.charset='utf-8';s.src="//jsc.adskeeper.co.uk/d/e/demonoid.pw.122102.js?t="+D.getYear()+D.getMonth()+D.getDate()+D.getHours();c[ac](s);})();




MediaInfo:

Video
ID : 2
Format : HEVC
Format/Info : High Efficiency Video Coding
Format profile : [email protected]@Main
Codec ID : V_MPEGH/ISO/HEVC
Duration : 2 h 43 min
Bit rate : 1 601 kb/s
Width : 1 920 pixels
Height : 796 pixels
Display aspect ratio : 2.40:1
Frame rate mode : Constant
Frame rate : 23.976 (24000/1001) FPS
Color space : YUV
Chroma subsampling : 4:2:0
Bit depth : 8 bits
Bits/(Pixel*Frame) : 0.044
Stream size : 1.83 GiB (89%)


Audio
ID : 1
Format : AAC
Format/Info : Advanced Audio Codec
Format profile : HE-AAC / LC
Codec ID : A_AAC
Duration : 2 h 43 min
Bit rate : 192 kb/s
Channel(s) : 6 channels


Text
ID : 3
Format : UTF-8
Codec ID : S_TEXT/UTF8
Codec ID/Info : UTF-8 Plain Text
Duration : 2 h 32 min
Bit rate : 23 b/s
Count of elements : 975
Stream size : 26.7 KiB (0%)





Screens:






Show Demonoid some love with BitCoin: 1DNoid2VRyfYn9T38Z1SZ5XncG7WMgCeUL How to get BitCoin?

Facebook Twitter Google Digg Reddit LinkedIn StumbleUpon Email

Related torrents

Torrent NameAddedSizeSeedLeechHealth
Last Month - in Movies1.38 GB222
Verified torrent
Last Month - in Movies1.66 GB25313
2 months ago - in Movies1.72 GB1329
3 months ago - in Other950.53 MB00



Comments (0 Comments)




Latest Searches