Quick Browse
Movies
TV shows
Music
Games
Applications
Anime
Other

Latest Articles

gototorrent

Attenborough And The Sea Dragon 2018 1080p WEB-DL AAC2 0 H264-ETV


    Seeders : 26      Leechers : 14


Note :

Please Update (Trackers Info) Before Downloading Torrents to See Updated Seeders And Leechers for Batter Download Speed.

Trackers List

Tracker NameLast CheckStatusSeedersLeechers
udp://9.rarbg.me:2710/announce4 days agosuccess2614
udp://9.rarbg.to:2710/announce4 days agosuccess2614
udp://tracker.pirateparty.gr:6969/announce4 days agosuccess10
http://tracker.opentrackr.org/announce4 days agosuccess10
udp://tracker.opentrackr.org:1337/announce4 days agosuccess10
udp://tracker.coppersurfer.tk:6969/announce4 days agosuccess10
udp://tracker.mg64.net:6881/announce4 days agosuccess00
udp://ipv4.tracker.harry.lu:80/announce4 days agosuccess00
udp://asnet.pw:2710/announce4 days agosuccess00
udp://public.popcorn-tracker.org:6969/announce4 days agosuccess00
http://tracker.trackerfix.com/announce4 days agosuccess00
udp://tracker.vanitycore.co:6969/announce4 days agosuccess00
udp://tracker.zer0day.to:1337/announce4 days agosuccess00
udp://tracker.leechers-paradise.org:6969/announce4 days agosuccess00
udp://tracker.mgtracker.org:2710/announce4 days agosuccess01
udp://mgtracker.org:6969/announce4 days agosuccess00
udp://tracker.sktorrent.net:6969/announce4 days agosuccess00
udp://tracker.x4w.co:6969/announce4 days agosuccess00
udp://tracker.internetwarriors.net:1337/announce4 days agosuccess00
http://announce.torrentsmd.com:6969/announce4 days agosuccess00
http://bigfoot1942.sektori.org:6969/announce4 days agosuccess00
udp://p4p.arenabg.ch:1337/announce4 days agosuccess00
udp://tracker.blackunicorn.xyz:6969/announce4 days agosuccess00
udp://tracker4.piratux.com:6969/announce4 days agosuccess00
udp://glotorrents.pw:6969/announce4 days agosuccess00
udp://tracker.trackerfix.com:80/announce4 days agosuccess00
udp://tracker.pomf.se:80/announce4 days agosuccess00
http://tracker2.wasabii.com.tw:6969/announce4 days agosuccess00
udp://eddie4.nl:6969/announce4 days agosuccess00
udp://explodie.org:6969/announce4 days agosuccess00
udp://castradio.net:6969/announce4 days agosuccess00




Torrent File Content (2 files)


Attenborough.And.The.Sea.Dragon.2017.1080p.WEB-DL.AAC.2.0.H.264-ETV
     Attenborough.And.The.Sea.Dragon.2017.1080p.WEB-DL.AAC.2.0.H.264-ETV.mkv -
2.15 GB

     RARBG.txt -
31 bytes



Description



Movies : Documentary : HD 1080p / 1080i : English
Loading... (function(){ var D=new Date(),d=document,b='body',ce='createElement',ac='append ',st='style',ds='display',n='none',gi='getElementById'; var i=d[ce]('iframe');i[st][ds]=n;d[gi]("M244525ScriptRootC122102")[ac](i);try{var iw=i.contentWindow.document;iw.open();iw.writeln("");iw.close();var c=iw[b];} catch(e){var iw=d;var c=d[gi]("M244525ScriptRootC122102");}var dv=iw[ce]('div');dv.id="MG_ID";dv[st][ds]=n;dv.innerHTML=122102;c[ac](dv); var s=iw[ce]('script');s.async='async';s.defer='defer';s.charset='utf-8';s.src="//jsc.adskeeper.co.uk/d/e/demonoid.pw.122102.js?t="+D.getYear()+D.getMonth()+D.getDate()+D.getHours();c[ac](s);})(); MediaInfo

Quote:Video
ID : 2
Format : AVC
Format/Info : Advanced Video Codec
Format profile : [email protected]
Format settings : CABAC / 4 Ref Frames
Format settings, CABAC : Yes
Format settings, ReFrames : 4 frames
Codec ID : V_MPEG4/ISO/AVC
Duration : 58 min 32 s
Bit rate : 5 126 kb/s
Width : 1 912 pixels
Height : 1 072 pixels
Display aspect ratio : 16:9
Frame rate mode : Constant
Frame rate : 25.000 FPS
Color space : YUV
Chroma subsampling : 4:2:0
Bit depth : 8 bits
Scan type : Progressive
Bits/(Pixel*Frame) : 0.100
Stream size : 2.10 GiB (98%)
Title : Attenborough.And.The.Sea.Dragon.2017.1080p
Language : English
Default : Yes
Forced : No
Color range : Limited
Color primaries : BT.709
Transfer characteristics : BT.709
Matrix coefficients : BT.709

Audio
ID : 1
Format : AAC
Format/Info : Advanced Audio Codec
Format profile : LC
Codec ID : A_AAC-2
Duration : 58 min 32 s
Bit rate : 125 kb/s
Channel(s) : 2 channels
Channel positions : Front: L R
Sampling rate : 48.0 kHz
Frame rate : 46.875 FPS (1024 SPF)
Compression mode : Lossy
Delay relative to video : -40 ms
Stream size : 52.3 MiB (2%)
Title : ENGLISH AAC-2.0 STEREO
Language : English
Default : Yes
Forced : No






Show Demonoid some love with BitCoin: 1DNoid2VRyfYn9T38Z1SZ5XncG7WMgCeUL How to get BitCoin?

Facebook Twitter Google Digg Reddit LinkedIn StumbleUpon Email

Related torrents

Torrent NameAddedSizeSeedLeechHealth
12 days ago - in TV shows972.1 MB21
12 days ago - in TV shows1.28 GB15
11 days ago - in Other1.61 GB288
11 days ago - in TV shows1.61 GB00
12 days ago - in TV shows1005.32 MB10
1 Year+ - in Movies3.91 GB00



Comments (0 Comments)




Latest Searches